Torrent Details
Julia Ann - Training The Young Guy [Milf Trainer]

Type:Porn > Other Rating:-1
Size:305.69 MiB Uploaded:2009-08-07 21:28:27

Download torrent
To see Screen Shots & Thumbnails replace (dot) with (.)
------------------------------------------------------
http://majaa(dot)org/forum/showthread.php?t=13636



File Info...
Format                           : AVI
Format/Info                      : Audio Video Interleave
File size                        : 305 MiB
Duration                         : 25mn 0s
Overall bit rate                 : 1 704 Kbps
Writing application              : VirtualDubMod 1.5.10.2 (build 2540/release)
Writing library                  : VirtualDub build 29963/release

Video
ID                               : 0
Format                           : MPEG-4 Visual
Format profile                   : AdvancedSimple@L5
Format settings, BVOP            : Yes
Format settings, QPel            : No
Format settings, GMC             : No warppoints
Format settings, Matrix          : Default (H.263)
Codec ID                         : XVID
Codec ID/Hint                    : XviD
Duration                         : 25mn 0s
Bit rate                         : 1 580 Kbps
Width                            : 576 pixels
Height                           : 320 pixels
Display aspect ratio             : 16:9
Frame rate                       : 29.970 fps
Resolution                       : 24 bits
Colorimetry                      : 4:2:0
Scan type                        : Progressive
Bits/(Pixel*Frame)               : 0.286
Stream size                      : 283 MiB (93%)
Writing library                  : XviD 1.2.1 (UTC 2008-12-04)

Audio
ID                               : 1
Format                           : MPEG Audio
Format version                   : Version 1
Format profile                   : Layer 3
Codec ID                         : 55
Codec ID/Hint                    : MP3
Duration                         : 25mn 0s
Bit rate mode                    : Constant
Bit rate                         : 112 Kbps
Channel(s)                       : 2 channels
Sampling rate                    : 48.0 KHz
Resolution                       : 16 bits
Stream size                      : 20.0 MiB (7%)
Alignment                        : Split accross interleaves
Interleave, duration             : 33 ms (1.00 video frame)
Interleave, preload duration     : 500 ms


-= Pls continue seedin' as much as U can... After all Sharin' is Carin'... =-

________________________________________________________________

My Other Releases:   http://thepiratebay.org/user/yakfoo

Search for this on tracker.btarena.org